The Byrds - Younger Than Yesterday (1967) (PBTHAL LP 24-96) [FLAC...

To stream or download from us use the app BitLord Get BitLord for Windows, Mac or Android.
Chromecast videos and audio. Subtitles in player.
  • Category Music
  • Type Lossless
  • Language English
  • Total size 559.8 MB
  • Uploaded By vtwin88cube2
  • Downloads 419
  • Last checked 3 days ago
  • Date uploaded 1 week ago
  • Seeders 41
  • Leechers 1

Infohash : 665CBA8D2E27578DD1EC81BE26D09EEDF77C2874

The Byrds
Younger Than Yesterday (1967)
FLAC LOSSLESS 24bit-96kHz
PBTHAL Vinyl Rip


allmusic.com...

Younger Than Yesterday was somewhat overlooked at the time of its release during an intensely competitive era that found the Byrds on a commercial downslide. Time, however, has shown it to be the most durable of the Byrds' albums, with the exception of Mr. Tambourine Man. David Crosby, Roger McGuinn, and especially Chris Hillman come into their own as songwriters on an eclectic but focused set blending folk-rock, psychedelia, and early country-rock. The sardonic "So You Want to Be a Rock & Roll Star" was a terrific single; "My Back Pages," also a small hit, was the last of their classic Dylan covers; "Thoughts and Words," the flower-power anthem "Renaissance Fair," "Have You Seen Her Face," and the bluegrass-tinged "Time Between" are all among their best songs. The jazzy "Everybody's Been Burned" may be Crosby's best composition, although his "Mind Gardens" is one of his most excessive.


foobar2000 1.4.3 / Dynamic Range Meter 1.1.1
log date: 2021-03-29 21:25:04

--------------------------------------------------------------------------------
Analyzed: The Byrds / Younger Than Yesterday
--------------------------------------------------------------------------------

DR Peak RMS Duration Track
--------------------------------------------------------------------------------
DR10 -2.44 dB -16.18 dB 2:10 01-So You Want To Be A Rock 'N' Roll Star
DR11 -1.99 dB -16.33 dB 2:30 02-Have You Seen Her Face
DR11 -0.70 dB -17.43 dB 2:32 03-C.T.A.-102
DR12 -2.11 dB -17.23 dB 1:55 04-Renaissance Fair
DR11 -2.31 dB -17.30 dB 2:00 05-Time Between
DR11 -5.14 dB -18.70 dB 3:03 06-Everybody's Been Burned
DR11 -2.39 dB -16.86 dB 2:59 07-Thoughts And Words
DR10 -3.80 dB -17.08 dB 3:31 08-Mind Gardens
DR12 -3.04 dB -18.39 dB 3:13 09-My Back Pages
DR11 -4.74 dB -17.19 dB 1:53 10-The Girl With No Name
DR12 -3.48 dB -18.18 dB 2:51 11-Why

Number of tracks: 11
Official DR value: DR11

Samplerate: 96000 Hz
Channels: 2
Bits per sample: 24
Bitrate: 2758 kbps
Codec: FLAC




Support the artists...
buy it if you like it!

Thanks for Seeding!
Cheers ;)

Files:

The Byrds - Younger Than Yesterday (1967) (PBTHAL LP 24-96) [FLAC] vtwin88cube
  • 00.-The Byrds - Younger Than Yesterday.m3u (0.3 KB)
  • 01.-So You Want To Be A Rock 'N' Roll Star.flac (42.7 MB)
  • 02.-Have You Seen Her Face.flac (50.5 MB)
  • 03.-C.T.A.-102.flac (50.8 MB)
  • 04.-Renaissance Fair.flac (36.7 MB)
  • 05.-Time Between.flac (39.5 MB)
  • 06.-Everybody's Been Burned.flac (56.3 MB)
  • 07.-Thoughts And Words.flac (58.6 MB)
  • 08.-Mind Gardens.flac (69.7 MB)
  • 09.-My Back Pages.flac (62.3 MB)
  • 10.-The Girl With No Name.flac (36.2 MB)
  • 11.-Why.flac (56.4 MB)
  • DR11.txt (1.4 KB)
  • folder.jpg (53.1 KB)
  • lineage.txt (0.4 KB)

There are currently no comments. Feel free to leave one :)

Code:

  • udp://tracker.openbittorrent.com:80/announce
  • udp://exodus.desync.com:6969/announce
  • udp://denis.stalker.upeer.me:6969/announce
  • udp://tracker.torrent.eu.org:451/announce
  • udp://tracker.coppersurfer.tk:6969/announce
  • udp://tracker.internetwarriors.net:1337/announce
  • udp://explodie.org:6969/announce
  • udp://tracker.leechers-paradise.org:6969/announce
  • http://tracker.opentrackr.org:1337/announce