Carnivale.S02.720p.10bit.AMZN.WEBRip.x265-ZZZ (Subs: En, Ro)

  • Category TV
  • Type HEVC/x265
  • Language English
  • Total size 3.0 GB
  • Uploaded By ZuzuZuzuZuzu
  • Downloads 387
  • Last checked 21 hours ago
  • Date uploaded 6 months ago
  • Seeders 1
  • Leechers 5

Infohash : 274C83FCD66C80BB28FA8274186506156C60A004

During the Great Depression, an Oklahoma farm boy and a charismatic minister learn that they are key players in a proxy war being fought between Heaven and Hell.

Source for the encodes:
Carnivale.S02.1080p.AMZN.WEBRip.DD5.1.x264-herkz


========== PERSONAL NOTES ==========

I am not a professional encoder and my releases are not perfect.
I learned on my own how to generate x265-HEVC files and I do my best to keep a balance between the quality and the size.
You can repost my work on any site in the hope that it will reach more people that will (hopefully) enjoy what they see.
Keeping the files in seed is the greatest "thank you" I could receive.
This would also mean that what I do is appreciated and deserves to be "kept alive".

Most of my releases are for series that are incomplete in this format (x265-HEVC).
If other encoders have started a series from Season 2 or 3 I try to complete it - first of all for me.
If a Season exists and has a good encode I won't invest the time and the resources just to add my name on something.

Thank you for downloading my releases. I hope you will enjoy what you see.

=====================================







General
Unique ID                                : 194095858618259873287244064222892271019 (0x920580ABAB020EC901951FAD679C25AB)
Complete name                            : F:\S-C\Carnivale [2003-2005]\Carnivale.S02.720p.10bit.AMZN.WEBRip.x265-ZZZ\Carnivale.S02E01.720p.10bit.AMZN.WEBRip.x265-ZZZ.mkv
Format                                   : Matroska
Format version                           : Version 4
File size                                : 243 MiB
Duration                                 : 50 min 47 s
Overall bit rate                         : 668 kb/s
Encoded date                             : UTC 2021-04-04 13:08:27
Writing application                      : mkvmerge v55.0.0 ('Waiting For Space') 64-bit
Writing library                          : libebml v1.4.2 + libmatroska v1.6.4

Video
ID                                       : 1
Format                                   : HEVC
Format/Info                              : High Efficiency Video Coding
Format profile                           : Main [email protected]@Main
Codec ID                                 : V_MPEGH/ISO/HEVC
Duration                                 : 50 min 47 s
Bit rate                                 : 601 kb/s
Width                                    : 1 280 pixels
Height                                   : 720 pixels
Display aspect ratio                     : 16:9
Frame rate mode                          : Constant
Frame rate                               : 23.976 (24000/1001) FPS
Color space                              : YUV
Chroma subsampling                       : 4:2:0
Bit depth                                : 10 bits
Bits/(Pixel*Frame)                       : 0.027
Stream size                              : 218 MiB (90%)
Writing library                          : x265 3.2.1+1-b5c86a64bbbe:[Windows][GCC 9.2.0][64 bit] 10bit
Encoding settings                        : cpuid=1111039 / frame-threads=3 / numa-pools=8 / wpp / no-pmode / no-pme / no-psnr / no-ssim / log-level=2 / input-csp=1 / input-res=1280x720 / interlace=0 / total-frames=0 / level-idc=0 / high-tier=1 / uhd-bd=0 / ref=5 / no-allow-non-conformance / no-repeat-headers / annexb / no-aud / no-hrd / info / hash=0 / no-temporal-layers / open-gop / min-keyint=24 / keyint=240 / gop-lookahead=0 / bframes=8 / b-adapt=2 / b-pyramid / bframe-bias=0 / rc-lookahead=40 / lookahead-slices=0 / scenecut=40 / radl=0 / no-splice / no-intra-refresh / ctu=64 / min-cu-size=8 / rect / amp / max-tu-size=32 / tu-inter-depth=3 / tu-intra-depth=3 / limit-tu=4 / rdoq-level=2 / dynamic-rd=0.00 / no-ssim-rd / signhide / no-tskip / nr-intra=0 / nr-inter=0 / no-constrained-intra / strong-intra-smoothing / max-merge=4 / limit-refs=1 / limit-modes / me=3 / subme=4 / merange=57 / temporal-mvp / no-hme / weightp / weightb / no-analyze-src-pics / deblock=0:0 / sao / no-sao-non-deblock / rd=6 / selective-sao=4 / no-early-skip / rskip / no-fast-intra / no-tskip-fast / no-cu-lossless / b-intra / no-splitrd-skip / rdpenalty=0 / psy-rd=2.00 / psy-rdoq=1.00 / no-rd-refine / no-lossless / cbqpoffs=0 / crqpoffs=0 / rc=abr / bitrate=600 / qcomp=0.60 / qpstep=4 / stats-write=0 / stats-read=2 / cplxblur=20.0 / qblur=0.5 / ipratio=1.40 / pbratio=1.30 / aq-mode=2 / aq-strength=1.00 / cutree / zone-count=0 / no-strict-cbr / qg-size=32 / no-rc-grain / qpmax=69 / qpmin=0 / no-const-vbv / sar=1 / overscan=0 / videoformat=5 / range=0 / colorprim=1 / transfer=1 / colormatrix=1 / chromaloc=0 / display-window=0 / cll=0,0 / min-luma=0 / max-luma=1023 / log2-max-poc-lsb=8 / vui-timing-info / vui-hrd-info / slices=1 / no-opt-qp-pps / no-opt-ref-list-length-pps / no-multi-pass-opt-rps / scenecut-bias=0.05 / no-opt-cu-delta-qp / no-aq-motion / no-hdr / no-hdr-opt / no-dhdr10-opt / no-idr-recovery-sei / analysis-reuse-level=5 / scale-factor=0 / refine-intra=0 / refine-inter=0 / refine-mv=1 / refine-ctu-distortion=0 / no-limit-sao / ctu-info=0 / no-lowpass-dct / refine-analysis-type=0 / copy-pic=1 / max-ausize-factor=1.0 / no-dynamic-refine / no-single-sei / no-hevc-aq / no-svt / no-field / qp-adaptation-range=1.00
Default                                  : Yes
Forced                                   : No
Color range                              : Limited
Color primaries                          : BT.709
Transfer characteristics                 : BT.709
Matrix coefficients                      : BT.709

Audio
ID                                       : 2
Format                                   : AAC LC
Format/Info                              : Advanced Audio Codec Low Complexity
Codec ID                                 : A_AAC-2
Duration                                 : 50 min 47 s
Bit rate                                 : 64.4 kb/s
Channel(s)                               : 2 channels
Channel layout                           : L R
Sampling rate                            : 48.0 kHz
Frame rate                               : 46.875 FPS (1024 SPF)
Compression mode                         : Lossy
Delay relative to video                  : -5 ms
Stream size                              : 23.4 MiB (10%)
Title                                    : EN
Language                                 : English
Default                                  : Yes
Forced                                   : No

Text #1
ID                                       : 3
Format                                   : UTF-8
Codec ID                                 : S_TEXT/UTF8
Codec ID/Info                            : UTF-8 Plain Text
Duration                                 : 47 min 29 s
Bit rate                                 : 44 b/s
Count of elements                        : 452
Stream size                              : 15.4 KiB (0%)
Title                                    : EN
Language                                 : English
Default                                  : No
Forced                                   : No

Text #2
ID                                       : 4
Format                                   : UTF-8
Codec ID                                 : S_TEXT/UTF8
Codec ID/Info                            : UTF-8 Plain Text
Duration                                 : 48 min 12 s
Bit rate                                 : 45 b/s
Count of elements                        : 418
Stream size                              : 15.9 KiB (0%)
Title                                    : RO
Language                                 : Romanian
Default                                  : No
Forced                                   : No

Files:

Carnivale.S02.720p.10bit.AMZN.WEBRip.x265-ZZZ
  • Carnivale.S02E01.720p.10bit.AMZN.WEBRip.x265-ZZZ.mkv (242.6 MB)
  • Carnivale.S02E02.720p.10bit.AMZN.WEBRip.x265-ZZZ.mkv (244.6 MB)
  • Carnivale.S02E03.720p.10bit.AMZN.WEBRip.x265-ZZZ.mkv (243.5 MB)
  • Carnivale.S02E04.720p.10bit.AMZN.WEBRip.x265-ZZZ.mkv (268.8 MB)
  • Carnivale.S02E05.720p.10bit.AMZN.WEBRip.x265-ZZZ.mkv (270.4 MB)
  • Carnivale.S02E06.720p.10bit.AMZN.WEBRip.x265-ZZZ.mkv (271.6 MB)
  • Carnivale.S02E07.720p.10bit.AMZN.WEBRip.x265-ZZZ.mkv (217.5 MB)
  • Carnivale.S02E08.720p.10bit.AMZN.WEBRip.x265-ZZZ.mkv (257.1 MB)
  • Carnivale.S02E09.720p.10bit.AMZN.WEBRip.x265-ZZZ.mkv (251.3 MB)
  • Carnivale.S02E10.720p.10bit.AMZN.WEBRip.x265-ZZZ.mkv (248.1 MB)
  • Carnivale.S02E11.720p.10bit.AMZN.WEBRip.x265-ZZZ.mkv (265.6 MB)
  • Carnivale.S02E12.720p.10bit.AMZN.WEBRip.x265-ZZZ.mkv (250.0 MB)

There are currently no comments. Feel free to leave one :)

Code:

  • udp://tracker.torrent.eu.org:451/announce
  • udp://tracker.coppersurfer.tk:6969/announce
  • udp://tracker.leechers-paradise.org:6969/announce
  • udp://tracker.cyberia.is:6969/announce
  • udp://tracker.iamhansen.xyz:2000/announce
  • udp://p4p.arenabg.com:1337/announce
  • udp://explodie.org:6969/announce
  • udp://tracker.opentrackr.org:1337/announce
  • udp://tracker.tiny-vps.com:6969/announce
  • udp://exodus.desync.com:6969/announce
  • udp://tracker.torrent.eu.org:451/announce
  • udp://tracker.moeking.me:6969/announce
  • udp://ipv4.tracker.harry.lu:80/announce
  • udp://open.stealth.si:80/announce
  • udp://9.rarbg.to:2710/announce
  • udp://opentor.org:2710/announce
  • UDP://TRACKER.ZER0DAY.TO:1337/ANNOUNCE
  • UDP://EDDIE4.NL:6969/ANNOUNCE