Chubare Wali Baari 2021 x264 720p WebHD Esub Punjabi THE GOPI SAH...

  • Category Movies
  • Type Bollywood
  • Language Punjabi
  • Total size 612.2 MB
  • Uploaded By Thegopisahi
  • Downloads 2528
  • Last checked 1 hour ago
  • Date uploaded 5 months ago
  • Seeders 39
  • Leechers 4

Infohash : 90DE24501ECFA0FACC933CF5950B6A4B0CB6A17F

Greets

Admin , Moderator , Noir, Ex0duS5150, theeshiznit, MisterQ, UserHEVC, miok, Silmarillion, Mr. Blue, MaDHeX and many more ;



Chubare Wali Baari 2021 x264 720p WebHD Esub Punjabi THE GOPI SAHI

Format                         : Matroska
Format version                 : Version 4
File size                      : 612 MiB
Duration                       : 1 h 25 min
Overall bit rate               : 998 kb/s
Movie name                     : Chubare Wali Baari 2021 GOPI SAHI
Encoded date                   : UTC 2021-04-03 09:12:21

Video
ID                             : 1
Format                         : AVC
Format/Info                    : Advanced Video Codec
Format profile                 : [email protected]
Format settings                : CABAC / 5 Ref Frames
Format settings, CABAC         : Yes
Format settings, Reference fra : 5 frames
Codec ID                       : V_MPEG4/ISO/AVC
Duration                       : 1 h 25 min
Bit rate                       : 899 kb/s
Width                          : 1 280 pixels
Height                         : 544 pixels
Display aspect ratio           : 2.35:1
Frame rate mode                : Constant
Frame rate                     : 25.000 FPS
Color space                    : YUV
Chroma subsampling             : 4:2:0
Bit depth                      : 8 bits
Scan type                      : Progressive
Bits/(Pixel*Frame)             : 0.052
Stream size                    : 552 MiB (90%)
Title                          : GOPI SAHI
Writing library                : x264 core 157 r2935 545de2f

Audio
ID                             : 2
Format                         : AAC LC
Format/Info                    : Advanced Audio Codec Low Complexity
Codec ID                       : A_AAC-2
Duration                       : 1 h 25 min
Bit rate                       : 96.0 kb/s
Channel(s)                     : 2 channels
Channel layout                 : L R
Sampling rate                  : 48.0 kHz
Frame rate                     : 46.875 FPS (1024 SPF)
Compression mode               : Lossy
Delay relative to video        : -21 ms
Stream size                    : 59.0 MiB (10%)
Title                          : GOPI SAHI
Language                       : Hindi
Default                        : Yes
Forced                         : No

Text

Language                       : English






Files:

  • Chubare Wali Baari 2021 x264 720p WebHD Esub Punjabi THE GOPI SAHI.mkv (612.2 MB)

There are currently no comments. Feel free to leave one :)

Code:

  • udp://tracker.torrent.eu.org:451/announce
  • udp://opentracker.i2p.rocks:6969/announce
  • udp://tracker.coppersurfer.tk:6969/announce
  • udp://p4p.arenabg.com:1337/announce
  • udp://exodus.desync.com:6969/announce
  • udp://tracker.sbsub.com:2710/announce
  • udp://tracker.tiny-vps.com:6969/announce
  • udp://tracker.opentrackr.org:1337/announce
  • udp://open.stealth.si:80/announce
  • udp://tracker.cyberia.is:6969/announce
  • udp://retracker.lanta-net.ru:2710/announce
  • udp://tracker.moeking.me:6969/announce
  • udp://tracker.internetwarriors.net:1337/announce