Amma Ki Boli 2021 x264 720p WebHD Esub Hindi THE GOPI SAHI

  • Category Movies
  • Type Bollywood
  • Language Hindi
  • Total size 839.5 MB
  • Uploaded By Thegopisahi
  • Downloads 4340
  • Last checked 1 hour ago
  • Date uploaded 4 months ago
  • Seeders 71
  • Leechers 10

Infohash : 5D98DFF9705341941F881A984BF90CA2EFC0E4D5

Greets

Admin , Moderator , Noir, Ex0duS5150, theeshiznit, MisterQ, UserHEVC, miok, Silmarillion, Mr. Blue, MaDHeX and many more ;



Amma Ki Boli 2021 x264 720p WebHD Esub Hindi THE GOPI SAHI

Format : Matroska
Format version : Version 4
File size : 840 MiB
Duration : 1 h 57 min
Overall bit rate : 997 kb/s
Movie name : Amma Ki Boli 2021 GOPI SAHI
Encoded date : UTC 2021-03-28 03:24:14

Video
ID : 1
Format : AVC
Format/Info : Advanced Video Codec
Format profile : [email protected]
Format settings : CABAC / 5 Ref Frames
Format settings, CABAC : Yes
Format settings, Reference fra : 5 frames
Codec ID : V_MPEG4/ISO/AVC
Duration : 1 h 57 min
Bit rate : 899 kb/s
Width : 1 280 pixels
Height : 544 pixels
Display aspect ratio : 2.35:1
Frame rate mode : Constant
Frame rate : 25.000 FPS
Color space : YUV
Chroma subsampling : 4:2:0
Bit depth : 8 bits
Scan type : Progressive
Bits/(Pixel*Frame) : 0.052
Stream size : 757 MiB (90%)
Title : GOPI SAHI
Writing library : x264 core 157 r2935 545de2f

Audio
ID : 2
Format : AAC LC
Format/Info : Advanced Audio Codec Low Complexity
Codec ID : A_AAC-2
Duration : 1 h 57 min
Bit rate : 96.0 kb/s
Channel(s) : 2 channels
Channel layout : L R
Sampling rate : 48.0 kHz
Frame rate : 46.875 FPS (1024 SPF)
Compression mode : Lossy
Delay relative to video : -101 ms
Stream size : 80.7 MiB (10%)
Title : GOPI SAHI
Language : Hindi
Default : Yes
Forced : No

Text
Language : English





Files:

  • Amma Ki Boli 2021 x264 720p WebHD Esub Hindi THE GOPI SAHI.mkv (839.5 MB)

Comments

Code:

  • udp://tracker.moeking.me:6969/announce
  • udp://tracker.opentrackr.org:1337/announce
  • udp://tracker.leechers-paradise.org:6969/announce
  • udp://exodus.desync.com:6969/announce
  • udp://open.stealth.si:80/announce
  • udp://tracker.sbsub.com:2710/announce
  • udp://tracker.cyberia.is:6969/announce
  • udp://tracker.tiny-vps.com:6969/announce
  • udp://retracker.lanta-net.ru:2710/announce
  • udp://tracker.torrent.eu.org:451/announce
  • udp://tracker.moeking.me:6969/announce
  • udp://tracker3.itzmx.com:6961/announce
  • http://tracker1.itzmx.com:8080/announce
  • udp://tracker.opentrackr.org:1337/announce
  • udp://tracker.internetwarriors.net:1337/announce