Stuber (2019) 1080p 10bit Bluray x265 HEVC [Org BD 5.1 Hindi + DD...

  • Category Movies
  • Type Dubs/Dual Audio
  • Language Hindi
  • Total size 3.2 GB
  • Uploaded By McuDudeS
  • Downloads 2315
  • Last checked 4 hours ago
  • Date uploaded 9 months ago
  • Seeders 33
  • Leechers 10

Stuber

ActionComedy

After crashing his car, a cop who's recovering from eye surgery recruits an Uber driver to help him catch a heroin dealer. The mismatched pair soon find themselves in for a wild day of stakeouts and shootouts as they encounter the city's seedy side.

Infohash : 7EE42CB83E647A36503A1F8C7FF0393C637ADB7B



Buckle up for a ***** ride...





Stuber (2019) 1080p 10bit Bluray x265 HEVC [Org BD 5.1 Hindi + DD 5.1 English] MSubs ~ TombDoc


Code:

Format                                   : Matroska
Format version                           : Version 4
File size                                : 3.23 GiB
Duration                                 : 1 h 33 min
Overall bit rate                         : 4 959 kb/s
Writing frontend                         : TombDoc

Video
ID                                       : 1
Format                                   : HEVC
Format/Info                              : High Efficiency Video Coding
Format profile                           : Main [email protected]@Main
Codec ID                                 : V_MPEGH/ISO/HEVC
Duration                                 : 1 h 33 min
Bit rate                                 : 4 001 kb/s
Width                                    : 1 920 pixels
Height                                   : 804 pixels
Display aspect ratio                     : 2.40:1
Frame rate mode                          : Constant
Frame rate                               : 23.976 (24000/1001) FPS
Color space                              : YUV
Chroma subsampling                       : 4:2:0
Bit depth                                : 10 bits
Bits/(Pixel*Frame)                       : 0.108
Stream size                              : 2.61 GiB (81%)
Writing library                          : x265 3.0_Au+24-4217e691387c:[Windows][GCC 9.1.1][64 bit] 10bit
Encoding settings                        : rc=abr / bitrate=4000 / qcomp=0.60 / qpstep=4 / stats-write=0 / stats-read=2 / cplxblur=20.0 / qblur=0.5 / qpmax=69 / qpmin=0 / no-lossless / no-cu-lossless / hevc-aq / aq-motion / aq-mode=3 / aq-strength=1.00 / cbqpoffs=0 / crqpoffs=0 / ipratio=1.40 / pbratio=1.30 / psy-rd=0.00 / psy-rdoq=1.00 / deblock=0:0 / ref=5 / limit-refs=3 / limit-modes / bframes=8 / b-adapt=2 / bframe-bias=0 / b-pyramid / no-b-intra / weightp / no-weightb / keyint=250 / min-keyint=23 / rc-lookahead=60 / gop-lookahead=0 / scenecut=40 / scenecut-bias=0.05 / ctu=64 / min-cu-size=8 / me=3 / subme=5 / merange=57 / rd=4 / no-rd-refine / ssim-rd / dynamic-rd=0.00 / rdoq-level=2 / rdpenalty=0 / cutree / sao / no-limit-sao / no-sao-non-deblock / rect / amp / open-gop / max-tu-size=32 / tu-inter-depth=1 / tu-intra-depth=1 / limit-tu=0 / qg-size=32 / wpp / no-pmode / no-pme / no-psnr / no-ssim / no-tskip / no-constrained-intra / strong-intra-smoothing / max-merge=5 / nr-intra=0 / nr-inter=0 / input-csp=1 / input-res=1920x804 / interlace=0 / total-frames=134352 / level-idc=0 / high-tier=1cpuid=1049583 / frame-threads=5 / numa-pools=16,16 / log-level=2 / uhd-bd=0 / lookahead-slices=4 / radl=0 / no-splice / no-intra-refresh / signhide / temporal-mvp / no-analyze-src-pics / no-early-skip / rskip / no-fast-intra / no-tskip-fast / no-splitrd-skip / zone-count=0 / no-strict-cbr / no-rc-grain / no-const-vbv / no-allow-non-conformance / no-repeat-headers / annexb / no-aud / no-hrd / info / hash=0 / no-temporal-layers / sar=0 / overscan=0 / videoformat=5 / range=0 / colorprim=2 / transfer=2 / colormatrix=2 / chromaloc=0 / display-window=0 / max-cll=0,0 / min-luma=0 / max-luma=1023 / log2-max-poc-lsb=8 / vui-timing-info / vui-hrd-info / slices=1 / no-opt-qp-pps / no-opt-ref-list-length-pps / no-multi-pass-opt-rps / no-opt-cu-delta-qp / no-hdr / no-hdr-opt / no-dhdr10-opt / no-idr-recovery-sei / analysis-reuse-level=5 / scale-factor=0 / refine-intra=0 / refine-inter=0 / refine-mv=0 / refine-ctu-distortion=0 / ctu-info=0 / no-lowpass-dct / refine-analysis-type=0 / copy-pic=1 / max-ausize-factor=1.0 / no-dynamic-refine / no-single-sei / no-svt / qp-adaptation-range=1.00
Default                                  : Yes
Forced                                   : No

Audio #1
ID                                       : 2
Format                                   : AC-3
Format/Info                              : Audio Coding 3
Commercial name                          : Dolby Digital
Codec ID                                 : A_AC3
Duration                                 : 1 h 33 min
Bit rate mode                            : Constant
Bit rate                                 : 448 kb/s
Channel(s)                               : 6 channels
Channel layout                           : L R C LFE Ls Rs
Sampling rate                            : 48.0 kHz
Frame rate                               : 31.250 FPS (1536 SPF)
Compression mode                         : Lossy
Delay relative to video                  : 10 ms
Stream size                              : 299 MiB (9%)
Title                                    : Org BD 5.1 448Kbps ~ TombDoc
Language                                 : Hindi
Service kind                             : Complete Main
Default                                  : Yes
Forced                                   : Yes

Audio #2
ID                                       : 3
Format                                   : AC-3
Format/Info                              : Audio Coding 3
Commercial name                          : Dolby Digital
Codec ID                                 : A_AC3
Duration                                 : 1 h 33 min
Bit rate mode                            : Constant
Bit rate                                 : 448 kb/s
Channel(s)                               : 6 channels
Channel layout                           : L R C LFE Ls Rs
Sampling rate                            : 48.0 kHz
Frame rate                               : 31.250 FPS (1536 SPF)
Compression mode                         : Lossy
Stream size                              : 299 MiB (9%)
Title                                    : DD 5.1 English
Language                                 : English
Service kind                             : Complete Main
Default                                  : No
Forced                                   : No

Text #1
ID                                       : 4
Format                                   : PGS
Muxing mode                              : zlib
Codec ID                                 : S_HDMV/PGS
Codec ID/Info                            : Picture based subtitle format used on BDs/HD-DVDs
Duration                                 : 1 h 32 min
Bit rate                                 : 41.7 kb/s
Count of elements                        : 3636
Stream size                              : 27.6 MiB (1%)
Title                                    : Hindi BD-PGS
Language                                 : Hindi
Default                                  : Yes
Forced                                   : Yes

Text #2
ID                                       : 5
Format                                   : PGS
Muxing mode                              : zlib
Codec ID                                 : S_HDMV/PGS
Codec ID/Info                            : Picture based subtitle format used on BDs/HD-DVDs
Duration                                 : 1 h 27 min
Bit rate                                 : 62.4 kb/s
Count of elements                        : 4306
Stream size                              : 38.9 MiB (1%)
Title                                    : Eng BD-PGS
Language                                 : English
Default                                  : No
Forced                                   : No

Text #3
ID                                       : 6
Format                                   : PGS
Muxing mode                              : zlib
Codec ID                                 : S_HDMV/PGS
Codec ID/Info                            : Picture based subtitle format used on BDs/HD-DVDs
Duration                                 : 1 h 28 min
Bit rate                                 : 90.7 kb/s
Count of elements                        : 4246
Stream size                              : 57.4 MiB (2%)
Title                                    : Commentary
Language                                 : English
Default                                  : No
Forced                                   : No

Menu
00:00:00.000                             : en:Chapter 01
00:05:52.435                             : en:Chapter 02
00:09:57.222                             : en:Chapter 03
00:14:14.854                             : en:Chapter 04
00:17:30.675                             : en:Chapter 05
00:19:46.310                             : en:Chapter 06
00:22:40.276                             : en:Chapter 07
00:27:33.402                             : en:Chapter 08
00:31:30.889                             : en:Chapter 09
00:33:19.247                             : en:Chapter 10
00:35:39.888                             : en:Chapter 11
00:40:13.036                             : en:Chapter 12
00:45:05.202                             : en:Chapter 13
00:49:10.114                             : en:Chapter 14
00:52:36.987                             : en:Chapter 15
00:56:46.111                             : en:Chapter 16
01:01:54.252                             : en:Chapter 17
01:05:43.648                             : en:Chapter 18
01:08:37.196                             : en:Chapter 19
01:13:31.157                             : en:Chapter 20
01:16:44.517                             : en:Chapter 21
01:19:07.534                             : en:Chapter 22
01:23:54.780                             : en:Chapter 23
01:27:49.598                             : en:Chapter 24



Code:

Source: Stuber 2019 BluRay 1080p TrueHD Atmos 7.1 AVC HYBRID REMUX-FraMeSToR



Files:

Stuber (2019) 1080p 10bit Bluray x265 HEVC [Org BD 5.1 Hindi + DD 5.1 English] MSubs ~ TombDoc
  • Stuber (2019) 1080p 10bit Bluray x265 HEVC [Org BD 5.1 Hindi + DD 5.1 English] MSubs ~ TombDoc.mkv (3.2 GB)
  • Stuber.jpg (532.1 KB)

Comments

Code:

  • udp://tracker.coppersurfer.tk:6969/announce
  • udp://tracker.opentrackr.org:1337/announce
  • udp://p4p.arenabg.com:1337/announce
  • udp://9.rarbg.me:2710/announce
  • udp://9.rarbg.to:2710/announce
  • udp://exodus.desync.com:6969/announce
  • udp://tracker.pomf.se:80/announce
  • udp://tracker.openbittorrent.com:80/announce
  • udp://tracker.torrent.eu.org:451/announce
  • udp://tracker.tiny-vps.com:6969/announce
  • udp://open.stealth.si:80/announce
  • udp://denis.stalker.upeer.me:6969/announce
  • udp://tracker.cyberia.is:6969/announce
  • udp://tracker.moeking.me:6969/announce
  • udp://tracker3.itzmx.com:6961/announce
  • udp://open.demonii.si:1337/announce
  • udp://ipv4.tracker.harry.lu:80/announce
  • udp://valakas.rollo.dnsabr.com:2710/announce
  • udp://opentor.org:2710/announce
  • udp://explodie.org:6969/announce