Miss Peregrines Home For Peculiar Children (2016) + Featurettes (...

  • Category Movies
  • Type HEVC/x265
  • Language English
  • Total size 2.6 GB
  • Uploaded By UTRCorp
  • Downloads 550
  • Last checked 4 hours ago
  • Date uploaded 9 months ago
  • Seeders 20
  • Leechers 4

Miss Peregrine's Home for Peculiar ...

Fantasy

A teenager finds himself transported to an island where he must help protect a group of orphans with special powers from creatures intent on destroying them.

Infohash : E6AA89280C754EA7BBEC49BE1DF642372351B37E



Media Information

Code:

General
Format : Matroska
Format version : Version 4 / Version 2
File size : 2.01 GiB
Duration : 2 h 6 min
Overall bit rate : 2 266 kb/s
Movie name : Miss Peregrine's Home For Peculiar Children (2016) [1080p x265 q22 FS97 Joy][UTR]
Encoded date : UTC 2019-11-12 03:02:05
Writing application : mkvmerge v40.0.0 ('Old Town Road + Pony') 64-bit
Writing library : libebml v1.3.9 + libmatroska v1.5.2
Cover : Yes
Attachments : cover.jpg

Video
ID : 1
Format : HEVC
Format/Info : High Efficiency Video Coding
Format profile : Main [email protected]@Main
Codec ID : V_MPEGH/ISO/HEVC
Duration : 2 h 6 min
Bit rate : 1 818 kb/s
Width : 1 920 pixels
Height : 1 032 pixels
Display aspect ratio : 1.85:1
Frame rate mode : Constant
Frame rate : 23.976 (24000/1001) FPS
Color space : YUV
Chroma subsampling : 4:2:0
Bit depth : 10 bits
Bits/(Pixel*Frame) : 0.038
Stream size : 1.61 GiB (80%)
Writing library : x265 3.2+9-971180b100f8:[Windows][MSVC 1923][64 bit] 10bit
Encoding settings : cpuid=1111039 / frame-threads=3 / numa-pools=12 / wpp / no-pmode / no-pme / no-psnr / ssim / log-level=2 / input-csp=1 / input-res=1920x1032 / interlace=0 / total-frames=182593 / level-idc=0 / high-tier=1 / uhd-bd=0 / ref=4 / no-allow-non-conformance / no-repeat-headers / annexb / no-aud / no-hrd / info / hash=0 / no-temporal-layers / open-gop / min-keyint=23 / keyint=250 / gop-lookahead=0 / bframes=8 / b-adapt=2 / b-pyramid / bframe-bias=20 / rc-lookahead=80 / lookahead-slices=4 / scenecut=40 / radl=0 / no-splice / no-intra-refresh / ctu=64 / min-cu-size=8 / rect / no-amp / max-tu-size=32 / tu-inter-depth=1 / tu-intra-depth=1 / limit-tu=0 / rdoq-level=2 / dynamic-rd=0.00 / ssim-rd / signhide / no-tskip / nr-intra=0 / nr-inter=0 / constrained-intra / strong-intra-smoothing / max-merge=5 / limit-refs=3 / limit-modes / me=3 / subme=5 / merange=57 / temporal-mvp / no-frame-dup / no-hme / weightp / no-weightb / no-analyze-src-pics / deblock=-2:-2 / sao / no-sao-non-deblock / rd=4 / selective-sao=4 / early-skip / rskip / no-fast-intra / no-tskip-fast / no-cu-lossless / no-b-intra / no-splitrd-skip / rdpenalty=0 / psy-rd=2.50 / psy-rdoq=1.15 / no-rd-refine / no-lossless / cbqpoffs=0 / crqpoffs=0 / rc=crf / crf=21.5 / qcomp=0.60 / qpstep=4 / stats-write=0 / stats-read=0 / ipratio=1.40 / pbratio=1.30 / aq-mode=1 / aq-strength=1.00 / cutree / zone-count=0 / no-strict-cbr / qg-size=32 / no-rc-grain / qpmax=69 / qpmin=0 / no-const-vbv / sar=0 / overscan=0 / videoformat=5 / range=0 / colorprim=2 / transfer=2 / colormatrix=2 / chromaloc=0 / display-window=0 / cll=0,0 / min-luma=0 / max-luma=1023 / log2-max-poc-lsb=8 / vui-timing-info / vui-hrd-info / slices=1 / no-opt-qp-pps / no-opt-ref-list-length-pps / no-multi-pass-opt-rps / scenecut-bias=0.05 / no-opt-cu-delta-qp / no-aq-motion / no-hdr / no-hdr-opt / no-dhdr10-opt / no-idr-recovery-sei / analysis-reuse-level=5 / scale-factor=0 / refine-intra=0 / refine-inter=0 / refine-mv=1 / refine-ctu-distortion=0 / no-limit-sao / ctu-info=0 / no-lowpass-dct / refine-analysis-type=0 / copy-pic=1 / max-ausize-factor=1.0 / no-dynamic-refine / no-single-sei / hevc-aq / no-svt / no-field / qp-adaptation-range=1.00
Default : Yes
Forced : No

Audio
ID : 2
Format : AAC
Format/Info : Advanced Audio Codec
Format profile : LC
Codec ID : A_AAC
Duration : 2 h 6 min
Bit rate : 366 kb/s
Channel(s) : 8 channels
Channel positions : Front: L C R, Side: 4, LFE
Sampling rate : 48.0 kHz
Frame rate : 46.875 FPS (1024 spf)
Compression mode : Lossy
Delay relative to video : 20 ms
Stream size : 333 MiB (16%)
Title : DTS-HD MA 7.1 @ 4528 kbps - Blu-ray
Language : English
Default : No
Forced : No

Subtitle #1
ID : 3
Format : UTF-8
Codec ID : S_TEXT/UTF8
Codec ID/Info : UTF-8 Plain Text
Duration : 1 h 58 min
Bit rate : 79 b/s
Count of elements : 1407
Stream size : 69.5 KiB (0%)
Language : Russian
Default : No
Forced : No

Subtitle #2
ID : 4
Format : UTF-8
Codec ID : S_TEXT/UTF8
Codec ID/Info : UTF-8 Plain Text
Duration : 2 h 1 min
Bit rate : 54 b/s
Count of elements : 1805
Stream size : 48.8 KiB (0%)
Language : English
Default : No
Forced : No

Subtitle #3
ID : 5
Format : UTF-8
Codec ID : S_TEXT/UTF8
Codec ID/Info : UTF-8 Plain Text
Duration : 2 h 1 min
Bit rate : 49 b/s
Count of elements : 1570
Stream size : 44.6 KiB (0%)
Language : English
Default : No
Forced : No

Subtitle #4
ID : 6
Format : UTF-8
Codec ID : S_TEXT/UTF8
Codec ID/Info : UTF-8 Plain Text
Duration : 1 h 58 min
Bit rate : 82 b/s
Count of elements : 1412
Stream size : 71.9 KiB (0%)
Language : Ukrainian
Default : No
Forced : No

Subtitle #5
ID : 7
Format : VobSub
Muxing mode : zlib
Codec ID : S_VOBSUB
Codec ID/Info : Picture based subtitle format used on DVDs
Duration : 2 h 1 min
Bit rate : 10.2 kb/s
Count of elements : 1805
Stream size : 8.89 MiB (0%)
Language : English
Default : No
Forced : No

Subtitle #6
ID : 8
Format : VobSub
Muxing mode : zlib
Codec ID : S_VOBSUB
Codec ID/Info : Picture based subtitle format used on DVDs
Duration : 2 h 5 min
Bit rate : 7 611 b/s
Count of elements : 1339
Stream size : 6.85 MiB (0%)
Language : Spanish
Default : No
Forced : No

Subtitle #7
ID : 9
Format : VobSub
Muxing mode : zlib
Codec ID : S_VOBSUB
Codec ID/Info : Picture based subtitle format used on DVDs
Duration : 2 h 5 min
Bit rate : 8 238 b/s
Count of elements : 1410
Stream size : 7.41 MiB (0%)
Language : French
Default : No
Forced : No

Subtitle #8
ID : 10
Format : VobSub
Muxing mode : zlib
Codec ID : S_VOBSUB
Codec ID/Info : Picture based subtitle format used on DVDs
Duration : 2 h 3 min
Bit rate : 7 342 b/s
Count of elements : 1116
Stream size : 6.50 MiB (0%)
Language : Danish
Default : No
Forced : No

Subtitle #9
ID : 11
Format : VobSub
Muxing mode : zlib
Codec ID : S_VOBSUB
Codec ID/Info : Picture based subtitle format used on DVDs
Duration : 2 h 5 min
Bit rate : 6 949 b/s
Count of elements : 1396
Stream size : 6.25 MiB (0%)
Language : Finnish
Default : No
Forced : No

Subtitle #10
ID : 12
Format : VobSub
Muxing mode : zlib
Codec ID : S_VOBSUB
Codec ID/Info : Picture based subtitle format used on DVDs
Duration : 2 h 4 min
Bit rate : 7 563 b/s
Count of elements : 1407
Stream size : 6.76 MiB (0%)
Language : Norwegian Bokmal
Default : No
Forced : No

Subtitle #11
ID : 13
Format : VobSub
Muxing mode : zlib
Codec ID : S_VOBSUB
Codec ID/Info : Picture based subtitle format used on DVDs
Duration : 2 h 5 min
Bit rate : 7 965 b/s
Count of elements : 1391
Stream size : 7.17 MiB (0%)
Language : Portuguese
Default : No
Forced : No

Subtitle #12
ID : 14
Format : VobSub
Muxing mode : zlib
Codec ID : S_VOBSUB
Codec ID/Info : Picture based subtitle format used on DVDs
Duration : 2 h 5 min
Bit rate : 7 920 b/s
Count of elements : 1408
Stream size : 7.13 MiB (0%)
Language : Russian
Default : No
Forced : No

Subtitle #13
ID : 15
Format : VobSub
Muxing mode : zlib
Codec ID : S_VOBSUB
Codec ID/Info : Picture based subtitle format used on DVDs
Duration : 2 h 5 min
Bit rate : 7 570 b/s
Count of elements : 1404
Stream size : 6.81 MiB (0%)
Language : Swedish
Default : No
Forced : No

Subtitle #14
ID : 16
Format : VobSub
Muxing mode : zlib
Codec ID : S_VOBSUB
Codec ID/Info : Picture based subtitle format used on DVDs
Duration : 2 h 5 min
Bit rate : 7 990 b/s
Count of elements : 1399
Stream size : 7.19 MiB (0%)
Language : Estonian
Default : No
Forced : No

Subtitle #15
ID : 17
Format : VobSub
Muxing mode : zlib
Codec ID : S_VOBSUB
Codec ID/Info : Picture based subtitle format used on DVDs
Duration : 2 h 5 min
Bit rate : 5 276 b/s
Count of elements : 1407
Stream size : 4.75 MiB (0%)
Language : Hebrew
Default : No
Forced : No

Subtitle #16
ID : 18
Format : VobSub
Muxing mode : zlib
Codec ID : S_VOBSUB
Codec ID/Info : Picture based subtitle format used on DVDs
Duration : 2 h 5 min
Bit rate : 8 018 b/s
Count of elements : 1264
Stream size : 7.21 MiB (0%)
Language : Icelandic
Default : No
Forced : No

Subtitle #17
ID : 19
Format : VobSub
Muxing mode : zlib
Codec ID : S_VOBSUB
Codec ID/Info : Picture based subtitle format used on DVDs
Duration : 2 h 5 min
Bit rate : 5 323 b/s
Count of elements : 1401
Stream size : 4.79 MiB (0%)
Language : Korean
Default : No
Forced : No

Subtitle #18
ID : 20
Format : VobSub
Muxing mode : zlib
Codec ID : S_VOBSUB
Codec ID/Info : Picture based subtitle format used on DVDs
Duration : 2 h 5 min
Bit rate : 7 365 b/s
Count of elements : 1403
Stream size : 6.63 MiB (0%)
Language : Latvian
Default : No
Forced : No

Subtitle #19
ID : 21
Format : VobSub
Muxing mode : zlib
Codec ID : S_VOBSUB
Codec ID/Info : Picture based subtitle format used on DVDs
Duration : 2 h 5 min
Bit rate : 7 500 b/s
Count of elements : 1409
Stream size : 6.75 MiB (0%)
Language : Lithuanian
Default : No
Forced : No

Subtitle #20
ID : 22
Format : VobSub
Muxing mode : zlib
Codec ID : S_VOBSUB
Codec ID/Info : Picture based subtitle format used on DVDs
Duration : 2 h 5 min
Bit rate : 8 121 b/s
Count of elements : 1413
Stream size : 7.31 MiB (0%)
Language : Ukrainian
Default : No
Forced : No

Subtitle #21
ID : 23
Format : UTF-8
Codec ID : S_TEXT/UTF8
Codec ID/Info : UTF-8 Plain Text
Duration : 1 h 59 min
Bit rate : 78 b/s
Count of elements : 1146
Stream size : 69.0 KiB (0%)
Language : Arabic
Default : No
Forced : No

Subtitle #22
ID : 24
Format : UTF-8
Codec ID : S_TEXT/UTF8
Codec ID/Info : UTF-8 Plain Text
Duration : 2 h 4 min
Bit rate : 103 b/s
Count of elements : 1572
Stream size : 94.6 KiB (0%)
Language : Bengali
Default : No
Forced : No

Subtitle #23
ID : 25
Format : UTF-8
Codec ID : S_TEXT/UTF8
Codec ID/Info : UTF-8 Plain Text
Duration : 2 h 5 min
Bit rate : 38 b/s
Count of elements : 1485
Stream size : 35.8 KiB (0%)
Language : Chinese
Default : No
Forced : No

Subtitle #24
ID : 26
Format : UTF-8
Codec ID : S_TEXT/UTF8
Codec ID/Info : UTF-8 Plain Text
Duration : 2 h 3 min
Bit rate : 43 b/s
Count of elements : 1116
Stream size : 39.2 KiB (0%)
Language : Danish
Default : No
Forced : No

Subtitle #25
ID : 27
Format : UTF-8
Codec ID : S_TEXT/UTF8
Codec ID/Info : UTF-8 Plain Text
Duration : 1 h 59 min
Bit rate : 47 b/s
Count of elements : 932
Stream size : 42.0 KiB (0%)
Language : Dutch
Default : No
Forced : No

Subtitle #26
ID : 28
Format : UTF-8
Codec ID : S_TEXT/UTF8
Codec ID/Info : UTF-8 Plain Text
Duration : 2 h 0 min
Bit rate : 78 b/s
Count of elements : 1180
Stream size : 69.3 KiB (0%)
Language : Persian
Default : No
Forced : No

Subtitle #27
ID : 29
Format : UTF-8
Codec ID : S_TEXT/UTF8
Codec ID/Info : UTF-8 Plain Text
Duration : 2 h 5 min
Bit rate : 43 b/s
Count of elements : 1291
Stream size : 39.8 KiB (0%)
Language : French
Default : No
Forced : No

Subtitle #28
ID : 30
Format : UTF-8
Codec ID : S_TEXT/UTF8
Codec ID/Info : UTF-8 Plain Text
Duration : 1 h 58 min
Bit rate : 47 b/s
Count of elements : 1380
Stream size : 41.4 KiB (0%)
Language : English
Default : No
Forced : No

Subtitle #29
ID : 31
Format : UTF-8
Codec ID : S_TEXT/UTF8
Codec ID/Info : UTF-8 Plain Text
Duration : 2 h 3 min
Bit rate : 67 b/s
Count of elements : 1234
Stream size : 61.0 KiB (0%)
Language : Hebrew
Default : No
Forced : No

Subtitle #30
ID : 32
Format : UTF-8
Codec ID : S_TEXT/UTF8
Codec ID/Info : UTF-8 Plain Text
Duration : 2 h 5 min
Bit rate : 43 b/s
Count of elements : 1403
Stream size : 39.8 KiB (0%)
Language : Norwegian
Default : No
Forced : No

Subtitle #31
ID : 33
Format : UTF-8
Codec ID : S_TEXT/UTF8
Codec ID/Info : UTF-8 Plain Text
Duration : 2 h 5 min
Bit rate : 67 b/s
Count of elements : 1413
Stream size : 62.0 KiB (0%)
Language : English
Default : No
Forced : No

Menu
00:00:00.000 : en:00:00:00.000
00:03:40.804 : en:00:03:40.804
00:08:38.017 : en:00:08:38.017
00:13:06.828 : en:00:13:06.828
00:15:26.551 : en:00:15:26.551
00:19:47.478 : en:00:19:47.478
00:23:23.652 : en:00:23:23.652
00:27:47.040 : en:00:27:47.040
00:31:06.448 : en:00:31:06.448
00:34:36.783 : en:00:34:36.783
00:39:34.998 : en:00:39:34.998
00:42:42.810 : en:00:42:42.810
00:46:05.638 : en:00:46:05.638
00:48:36.497 : en:00:48:36.497
00:54:16.462 : en:00:54:16.462
00:57:21.480 : en:00:57:21.480
01:02:03.261 : en:01:02:03.261
01:08:20.847 : en:01:08:20.847
01:14:29.006 : en:01:14:29.006
01:18:54.063 : en:01:18:54.063
01:24:15.300 : en:01:24:15.300
01:28:42.442 : en:01:28:42.442
01:33:11.753 : en:01:33:11.753
01:36:29.033 : en:01:36:29.033
01:40:43.788 : en:01:40:43.788
01:46:09.238 : en:01:46:09.238
01:53:35.308 : en:01:53:35.308
02:00:34.394 : en:02:00:34.394



Source Information

Code:

Release:
Unknown Source/NO-GROUP



Code:


Note From UTR
Whilst we are happy for our releases to be re-posted on a platform we aren't on, please do so in an 'as-is' format. We ask that you do not create a new torrent, include all descriptions you see above including the UTR logo, tags, notes and screenshots. If you'd like to become a permanent poster on a website we don't post to, feel free to get in contact with a UTR member.
If possible please donate for seedboxes.
BTC - 1QA5fum5AyXvWzdVCkQzUNvw3Ef15fHRaR
Monero - 8AuksPSzY7fen3HHT1a2342PgVy4J93MKfXG3AAcayV76miTyJ3sNfn38srwrpLirGfeR5DwhTL8GW8pdQgT7bZcJ25ynMx
Dash - Xh4mNs6uwZdpCEX2HSEVwGvPD7yKxZ1Ccd
Ethereum - 0x51c06c94e74c16735a7a6e841ad29fc90a84eb1f



Files:

Miss Peregrine's Home For Peculiar Children (2016) [1080p x265 q22 FS97 Joy]
  • Miss Peregrine's Home For Peculiar Children (2016) [1080p x265 q22 FS97 Joy].mkv (2.0 GB)
  • folder.jpg (15.0 KB)
  • How to play HEVC (THIS FILE).txt (3.8 KB)
  • Encoded by JoyBell (UTR).txt (3.2 KB)
  • Ninite K-Lite Codecs Unattended Silent Installer and Updater.website (0.5 KB)
  • Featurettes
    • Florence + The Machine - Wish That You Were Here.mkv (11.0 MB)
    • Hollows and Ex-Hollows.mkv (52.5 MB)
    • Map of Days.mkv (99.8 MB)
    • The Peculiar Story.mkv (72.3 MB)
    • The Peculiars.mkv (365.8 MB)

Comments

Code:

  • udp://tracker.opentrackr.org:1337/announce
  • udp://tracker.coppersurfer.tk:6969/announce
  • udp://9.rarbg.com:2710/announce
  • udp://9.rarbg.to:2710/announce
  • udp://tracker.torrent.eu.org:451/announce
  • udp://exodus.desync.com:6969/announce
  • udp://tracker.tiny-vps.com:6969/announce
  • udp://open.demonii.si:1337/announce
  • udp://tracker.internetwarriors.net:1337/announce