Stargate Continuum (2008) (1080p BluRay x265 HEVC AAC 5.1 Joy) [U...

  • Category Movies
  • Type HEVC/x265
  • Language English
  • Total size 1,010.7 MB
  • Uploaded By UTRCorp
  • Downloads 895
  • Last checked 3 hours ago
  • Date uploaded 9 months ago
  • Seeders 18
  • Leechers 1

Stargate: Continuum

ActionAdventureScience Fiction

Ba'al travels back in time and prevents the Stargate program from being started. SG-1 must somehow restore history.

Infohash : E2D6DBD0E9F063EDCDA446B30EB74DC611D5B244








Media Information

Media Information

Code:

General
Format : Matroska
Format version : Version 4 / Version 2
File size : 1 011 MiB
Duration : 1 h 38 min
Overall bit rate : 1 433 kb/s
Encoded date : UTC 2015-05-24 07:46:01
Writing application : mkvmerge v7.9.0 ('Birds') 64bit
Writing library : libebml v1.3.1 + libmatroska v1.4.2

Video
ID : 1
Format : HEVC
Format/Info : High Efficiency Video Coding
Format profile : Main [email protected]@Main
Codec ID : V_MPEGH/ISO/HEVC
Duration : 1 h 38 min
Bit rate : 1 222 kb/s
Width : 1 920 pixels
Height : 1 080 pixels
Display aspect ratio : 16:9
Frame rate mode : Constant
Frame rate : 23.976 (24000/1001) FPS
Original frame rate : 23.976 (23976/1000) FPS
Color space : YUV
Chroma subsampling : 4:2:0
Bit depth : 10 bits
Bits/(Pixel*Frame) : 0.025
Stream size : 862 MiB (85%)
Writing library : x265 1.7+2-d7b100e51e82:[Windows][GCC 4.8.2][64 bit] 16bpp
Encoding settings : wpp / ctu=64 / min-cu-size=8 / max-tu-size=32 / tu-intra-depth=1 / tu-inter-depth=1 / me=1 / subme=2 / merange=57 / no-rect / no-amp / max-merge=2 / temporal-mvp / no-early-skip / rdpenalty=0 / no-tskip / no-tskip-fast / strong-intra-smoothing / no-lossless / no-cu-lossless / no-constrained-intra / no-fast-intra / open-gop / no-temporal-layers / interlace=0 / keyint=250 / min-keyint=23 / scenecut=40 / rc-lookahead=20 / lookahead-slices=0 / bframes=4 / bframe-bias=0 / b-adapt=2 / ref=3 / weightp / no-weightb / aq-mode=1 / aq-strength=1.00 / cbqpoffs=0 / crqpoffs=0 / rd=3 / psy-rd=0.30 / rdoq-level=0 / psy-rdoq=0.00 / signhide / deblock / sao / no-sao-non-deblock / b-pyramid / cutree / rc=2 / pass / bitrate=1221 / qcomp=0.60 / qpmin=0 / qpmax=51 / qpstep=4 / cplxblur=20.0 / qblur=0.5 / ipratio=1.40 / pbratio=1.30
Default : Yes
Forced : No

Audio
ID : 2
Format : AAC
Format/Info : Advanced Audio Codec
Format profile : HE-AAC / LC
Codec ID : A_AAC
Duration : 1 h 38 min
Bit rate : 209 kb/s
Channel(s) : 6 channels
Channel positions : Front: L C R, Side: L R, LFE
Sampling rate : 48.0 kHz / 24.0 kHz
Frame rate : 23.438 FPS (1024 spf)
Compression mode : Lossy
Delay relative to video : 31 ms
Stream size : 147 MiB (15%)
Language : English
Default : Yes
Forced : No

Subtitle #1
ID : 3
Format : UTF-8
Codec ID : S_TEXT/UTF8
Codec ID/Info : UTF-8 Plain Text
Duration : 1 h 33 min
Bit rate : 58 b/s
Count of elements : 1134
Stream size : 40.2 KiB (0%)
Language : Danish
Default : No
Forced : No

Subtitle #2
ID : 4
Format : UTF-8
Codec ID : S_TEXT/UTF8
Codec ID/Info : UTF-8 Plain Text
Duration : 1 h 29 min
Bit rate : 70 b/s
Count of elements : 1095
Stream size : 46.1 KiB (0%)
Language : Dutch
Default : No
Forced : No

Subtitle #3
ID : 5
Format : UTF-8
Codec ID : S_TEXT/UTF8
Codec ID/Info : UTF-8 Plain Text
Duration : 1 h 33 min
Bit rate : 65 b/s
Count of elements : 1126
Stream size : 44.6 KiB (0%)
Language : English
Default : No
Forced : No

Subtitle #4
ID : 6
Format : UTF-8
Codec ID : S_TEXT/UTF8
Codec ID/Info : UTF-8 Plain Text
Duration : 1 h 33 min
Bit rate : 73 b/s
Count of elements : 1133
Stream size : 49.9 KiB (0%)
Language : French
Default : No
Forced : No

Subtitle #5
ID : 7
Format : UTF-8
Codec ID : S_TEXT/UTF8
Codec ID/Info : UTF-8 Plain Text
Duration : 1 h 29 min
Bit rate : 68 b/s
Count of elements : 1134
Stream size : 44.7 KiB (0%)
Language : German
Default : No
Forced : No

Subtitle #6
ID : 8
Format : UTF-8
Codec ID : S_TEXT/UTF8
Codec ID/Info : UTF-8 Plain Text
Duration : 1 h 33 min
Bit rate : 70 b/s
Count of elements : 1128
Stream size : 47.8 KiB (0%)
Language : Vietnamese
Default : No
Forced : No



Source Information

Code:

Release:
Unknown Source/NO-GROUP



Code:


Note From UTR
Whilst we are happy for our releases to be re-posted on a platform we aren't on, please do so in an 'as-is' format. We ask that you do not create a new torrent, include all descriptions you see above including the UTR logo, tags, notes and screenshots. If you'd like to become a permanent poster on a website we don't post to, feel free to get in contact with a UTR member.
If possible please donate for seedboxes.
BTC - 1QA5fum5AyXvWzdVCkQzUNvw3Ef15fHRaR
Monero - 8AuksPSzY7fen3HHT1a2342PgVy4J93MKfXG3AAcayV76miTyJ3sNfn38srwrpLirGfeR5DwhTL8GW8pdQgT7bZcJ25ynMx
Dash - Xh4mNs6uwZdpCEX2HSEVwGvPD7yKxZ1Ccd
Ethereum - 0x51c06c94e74c16735a7a6e841ad29fc90a84eb1f



Files:

  • Stargate Continuum (1080p x265 Joy).mkv (1,010.7 MB)

Comments

Code:

  • udp://open.demonii.com:1337/announce
  • udp://9.rarbg.com:2710/announce
  • udp://coppersurfer.tk:6969/announce
  • udp://9.rarbg.me:2710/announce
  • udp://tracker.publicbt.com:80/announce
  • udp://tracker.istole.it:80/announce
  • udp://tracker.openbittorrent.com:80/announce
  • udp://glotorrents.pw:6969/announce
  • http://tracker.aletorrenty.pl:2710/announce
  • http://torrent.gresille.org/announce
  • udp://eddie4.nl:6969/announce
  • udp://tracker4.piratux.com:6969/announce
  • http://torrent.gresille.org/announce
  • https://tt.jumbohostpro.eu/3dab0d0ace91f8228e0c2ec85cafdd3c/announce